Overcast Expectational Dilution

  • OVERCAST expectational dilution (2020/BULLET PROVE) HARDCORE/METALCORE. Bullet Tooth deliver the limited-edition releases for legendary metalcore pioneers OVERCAST. Originally released as a CD only release in 1994 on the legendary Endless Fight Label now all songs got remastered and the album includes expanded artwork.
  • Discover releases, reviews, credits, songs, and more about Overcast - Expectational Dilution at Discogs. Complete your Overcast collection.
  • Listen free to Overcast – Expectational Dilution (Grifter, Two Degrees Below and more). 11 tracks (52:15). Discover more music, concerts, videos, and pictures with the largest catalogue online at Last.fm.

View credits, reviews, tracks and shop for the 1997 CD release of Expectational Dilution on Discogs. Label: Edison Recordings - edison 005. Format: CD Album, Reissue. Country: US. Genre: Rock. Style: Metalcore, Thrash, Groove Metal, Hardcore. Overcast (3) Expectational Dilution. OVERCAST Expectational Dilution (CD 1997) 12 Songs Heavy Metal. Condition: Very Good. $43.96 + $5.99 Shipping. Was $49.95 Save 12%. What does this price mean? This is the price (excluding shipping and handling fees) this seller has provided at which the seller has sold the same item, or one that is virtually identical to it, in the recent past.

(Redirected from Expectational Dilution)
Background information
OriginBoston, Massachusetts[1]
GenresMetalcore[2]
Years active
  • 1991–1998
  • 2006–2008
  • 2014–2015
Labels
Associated acts
Past members
  • Pete Cortese
  • Scott McCooe
  • Jay Fitzgerald

Overcast was an American metalcore band that started in the early 1990s, but broke up in 1998 after an unsuccessful tour.[3] In 2006 they reunited to play the 2006 installment of the New England Metal and Hardcore Festival, and announced that they would release a new album entitled Reborn to Kill Again with 11 re-recorded classic tracks and two unreleased tracks.[4][5] In 2011, ex-Overcast band-mates: Mike D'Antonio, Pete Cortese and Brian Fair announced the formation of their new side-project; 'Death Ray Vision'.[6] Overcast is often regarded as the godfather of metalcore.[7][8][9]

Discography[edit]

Studio albums[edit]

  • Expectational Dilution (1994)
  • Fight Ambition to Kill (1997)
  • Reborn to Kill Again (2008)

Extended plays[edit]

  • Bleed into One (1992)
  • Twin Terror Split (1995)
  • Stirring the Killer (1995)
  • Begging For Indifference (1996)
  • Overcast / Arise Split (1996)
  • In These Black Days Vol. 4 Split (1998)

Members[edit]

  • Brian Fair - vocals[10]
  • Mike D'Antonio - bass
  • Pete Cortese - guitar
  • Scott McCooe - guitar
  • Jay Fitzgerald - drums

References[edit]

  1. ^Sharpe-Young, Garry (November 2005). New Wave of American Heavy Metal. Zonda Books Limited. p. 230. ISBN0-9582684-0-1.
  2. ^Harris, Chris; Wiederhorn, Jon (28 April 2006). 'Overcast, Black Dahlia Murder, Nevermore, D.R.I. & More News That Rules'. mtv.com. Retrieved 23 July 2011.
  3. ^'Overcast - Biography & History'. AllMusic. Retrieved 2018-04-06.
  4. ^Lyford, Josh (2014-01-23). 'Overcast hits the stage hard at Ralph's - Worcester Mag'. Worcester Mag. Retrieved 2018-04-06.
  5. ^'Overcast – Reborn to Kill Again'. Teeth of the Divine. Retrieved 2018-04-06.
  6. ^Sharpe-Young, Garry (2005). New Wave of American Heavy Metal. Zonda Books Limited. ISBN9780958268400.
  7. ^'Overcast reviews, music, news - sputnikmusic'. Sputnik Music. Retrieved 2018-04-06.
  8. ^'DEATH RAY VISION: NOT QUITE AN OVERCAST REUNION, BUT PRETTY CLOSE'. MetalSucks. 2011-02-17. Retrieved 2018-04-06.
  9. ^Harris, Chris (22 August 2008). 'Overcast Are Reborn On Reunion Album; Plus Killswitch Engage, Metallica & More News That Rules'. mtv.com. Retrieved 23 July 2011.
  10. ^'Shadows Fall, Killswitch Engage Members Form New Supergroup'. Metal Insider. 2011-02-15. Retrieved 2018-04-06.

External links[edit]

  • Overcast.cc website (archive)
Retrieved from 'https://en.wikipedia.org/w/index.php?title=Overcast_(band)&oldid=989395421'

Overcast - Дискография
Жанр: Melodic Metalcore
Год выпуска диска: 1994-2008
Производитель диска: United States of America (Boston, Massachusetts)
Источник: what.cd
Аудио кодек: FLAC
Тип рипа: tracks+.cue
Битрейт аудио: lossless
Продолжительность: 02:46:07
Трэклист:Исполнитель: Overcast
Альбом: Expectational Dilution
Тип релиза: Студийная запись
Дата выпуска: 1994
Лейбл: Edison Recordings
Формат: FLAC (tracks)
Битрейт: 906-1070 kbps
Продолжительность: 00:53:14
Источник: Скачано с what.cd
Треклист:
01. Grifter [00:02:39]
02. Two Degrees Below [00:04:47]
03. Absolute Threshold [00:05:35]
04. As A Whole [00:05:07]
05. Allegiance To The Flesh [00:04:31]
06. Iconoclasm [00:06:03]
07. Bleed Into One [00:06:23]
08. Diluting Inertia [00:04:10]
09. Faceless (7' Version) [00:03:20]
10. Staredown (7' Version) [00:03:46]
11. Follow (7' Version) [00:06:48]
Artwork By [Cd Tray] - Kit
Artwork By [Graphic Design And Art Direction] - Darkicon
Bass - Mike D'Antonio
Drums - Jay Fitzgerald
Guitar - Pete Cortese , Shawn Rounds
Photography [Back Photo] - Josh Baker
Photography [Cover Photo] - Jen D'Intinosanto
Photography [Individual] - Mike D.
Producer - Mike Westsound*
Producer, Songwriter - Overcast (3)
Remastered By [Digitally] - Keith Chirgwin , Morgan Walker
Vocals - Brian Fair
Tracks 1-8 recorded @ West Sound Studio in Londonderry, NH May 23-26m 1994.
Tracks 9-11 originally released on the 'Bleed Into One' 7' recorded @ Sound Of Glass in W. Boylston, MA on November 18th 1992.
All tracks digitally Re-mastered on February 26, 1997 @ Wave View Digital Editing.
This was originally released on Endless Fight Records in 1994 and re-released by Edison Recordings on Cd/ Cassette.
Track 8 ('Diluting Inertia') contains no lyrics, but has slowed down audio samples playing through out the song.
There are 12 different songs listed on the back cover, but one song, 'Follow' does not seem to be on this recording.
This re-issue features the re-mastered version of 'Bleed Into One', which is not seen on the original release. But, the original release features a bonus track 'Scar The Mind' which is not seen on this re-issue.

Overcast Expectational Dilution Formula

Exact Audio Copy V0.99 prebeta 4 from 23. January 2008
EAC extraction logfile from 11. February 2009, 0:09
Overcast / Expectational Dilution
Used drive : MAD DOG MD-16XDVD9A4 Adapter: 4 ID: 0
Read mode : Secure
Utilize accurate stream : Yes
Defeat audio cache : Yes
Make use of C2 pointers : No
Read offset correction : 48
Overread into Lead-In and Lead-Out : No
Fill up missing offset samples with silence : Yes
Delete leading and trailing silent blocks : No
Null samples used in CRC calculations : Yes
Used interface : Native Win32 interface for Win NT & 2000
Gap handling : Appended to previous track
Used output format : User Defined Encoder
Selected bitrate : 320 kBit/s
Quality : High
Add ID3 tag : No
Command line compressor : C:Program FilesExact Audio CopyFlacflac.exe
Additional command line options : -V -8 -T 'artist=%a' -T 'title=%t' -T 'album=%g' -T 'date=%y' -T 'tracknumber=%n' -T 'genre=%m' %s
TOC of the extracted CD
Track Start Length Start sector End sector
---------------------------------------------------------
1 0:00.00 2:39.46 0 11970
2 2:39.46 4:47.49 11971 33544
3 7:27.20 5:35.47 33545 58716
4 13:02.67 5:07.06 58717 81747
5 18:09.73 4:31.36 81748 102108
6 22:41.34 6:03.06 102109 129339
7 28:44.40 6:23.71 129340 158135
8 35:08.36 4:10.09 158136 176894
9 39:18.45 3:20.60 176895 191954
10 42:39.30 3:46.38 191955 208942
11 46:25.68 6:48.69 208943 239611
Track 1
Filename 01 - Grifter.wav
Pre-gap length 0:00:02.00
Peak level 91.2 %
Track quality 100.0 %
Test CRC 7C036EC7
Copy CRC 7C036EC7
Accurately ripped (confidence 1) [C6C1A32C]
Copy OK
Track 2
Filename 02 - Two Degrees Below.wav
Pre-gap length 0:00:01.60
Peak level 89.1 %
Track quality 100.0 %
Test CRC 6AB2C3D1
Copy CRC 6AB2C3D1
Accurately ripped (confidence 1) [129233DA]
Copy OK
Track 3
Filename 03 - Absolute Threshold.wav
Pre-gap length 0:00:01.60
Peak level 92.2 %
Track quality 100.0 %
Test CRC 2D3F53D9
Copy CRC 2D3F53D9
Accurately ripped (confidence 1) [8DAA2ADD]
Copy OK
Track 4
Filename 04 - As A Whole.wav
Pre-gap length 0:00:01.60
Peak level 92.6 %
Track quality 100.0 %
Test CRC A8572B53
Copy CRC A8572B53
Accurately ripped (confidence 1) [A94E5E29]
Copy OK
Track 5
Filename 05 - Allegiance To The Flesh.wav
Peak level 92.9 %
Track quality 100.0 %
Test CRC D6E8ADE1
Copy CRC D6E8ADE1
Accurately ripped (confidence 1) [16CB3839]
Copy OK
Track 6
Filename 06 - Iconoclasm.wav
Pre-gap length 0:00:00.58
Peak level 92.3 %
Track quality 100.0 %
Test CRC EFEE579E
Copy CRC EFEE579E
Accurately ripped (confidence 1) [DF638C9A]
Copy OK
Track 7
Filename 07 - Bleed Into One.wav
Peak level 87.8 %
Track quality 100.0 %
Test CRC 4B1E0BE4
Copy CRC 4B1E0BE4
Accurately ripped (confidence 1) [B9376BDA]
Copy OK
Track 8
Filename 08 - Diluting Inertia.wav
Pre-gap length 0:00:01.60
Peak level 89.0 %
Track quality 100.0 %
Test CRC A96AC1DE
Copy CRC A96AC1DE
Accurately ripped (confidence 1) [A6E7B77F]
Copy OK
Track 9
Filename 09 - Faceless (7' Version).wav
Pre-gap length 0:00:01.60
Peak level 87.6 %
Track quality 100.0 %
Test CRC 7EF8E25F
Copy CRC 7EF8E25F
Accurately ripped (confidence 1) [9E772364]
Copy OK
Track 10
Filename 10 - Staredown (7' Version).wav
Peak level 88.6 %
Track quality 100.0 %
Test CRC 4DB46529
Copy CRC 4DB46529
Accurately ripped (confidence 1) [526BEE57]
Copy OK
Track 11
Filename 11 - Follow (7' Version).wav
Pre-gap length 0:00:01.60
Peak level 86.3 %
Track quality 100.0 %
Test CRC C9656722
Copy CRC C9656722
Accurately ripped (confidence 1) [FC06F966]
Copy OK
All tracks accurately ripped
No errors occurred
End of status report
REM GENRE Metal
REM DATE 1994
REM DISCID 8B0C7A0B
REM COMMENT 'ExactAudioCopy v0.99pb4'
PERFORMER 'Overcast'
TITLE 'Expectational Dilution'
FILE '01 - Grifter.wav' WAVE
TRACK 01 AUDIO
TITLE 'Grifter'
PERFORMER 'Overcast'
FLAGS DCP
INDEX 01 00:00:00
TRACK 02 AUDIO
TITLE 'Two Degrees Below'
PERFORMER 'Overcast'
FLAGS DCP
INDEX 00 02:38:01
FILE '02 - Two Degrees Below.wav' WAVE
INDEX 01 00:00:00
TRACK 03 AUDIO
TITLE 'Absolute Threshold'
PERFORMER 'Overcast'
FLAGS DCP
INDEX 00 04:46:04
FILE '03 - Absolute Threshold.wav' WAVE
INDEX 01 00:00:00
TRACK 04 AUDIO
TITLE 'As A Whole'
PERFORMER 'Overcast'
FLAGS DCP
INDEX 00 05:34:02
FILE '04 - As A Whole.wav' WAVE
INDEX 01 00:00:00
FILE '05 - Allegiance To The Flesh.wav' WAVE
TRACK 05 AUDIO
TITLE 'Allegiance To The Flesh'
PERFORMER 'Overcast'
FLAGS DCP
INDEX 01 00:00:00
TRACK 06 AUDIO
TITLE 'Iconoclasm'
PERFORMER 'Overcast'
FLAGS DCP
INDEX 00 04:30:67
FILE '06 - Iconoclasm.wav' WAVE
INDEX 01 00:00:00
FILE '07 - Bleed Into One.wav' WAVE
TRACK 07 AUDIO
TITLE 'Bleed Into One'
PERFORMER 'Overcast'
FLAGS DCP
INDEX 01 00:00:00
TRACK 08 AUDIO
TITLE 'Diluting Inertia'
PERFORMER 'Overcast'
FLAGS DCP
INDEX 00 06:22:26
FILE '08 - Diluting Inertia.wav' WAVE
INDEX 01 00:00:00
TRACK 09 AUDIO
TITLE 'Faceless (7' Version)'
PERFORMER 'Overcast'
FLAGS DCP
INDEX 00 04:08:39
FILE '09 - Faceless (7' Version).wav' WAVE
INDEX 01 00:00:00
FILE '10 - Staredown (7' Version).wav' WAVE
TRACK 10 AUDIO
TITLE 'Staredown (7' Version)'
PERFORMER 'Overcast'
FLAGS DCP
INDEX 01 00:00:00
TRACK 11 AUDIO
TITLE 'Follow (7' Version)'
PERFORMER 'Overcast'
FLAGS DCP
INDEX 00 03:44:68
FILE '11 - Follow (7' Version).wav' WAVE
INDEX 01 00:00:00
Исполнитель: Overcast
Альбом: Begging For Indifference
Тип релиза: Мини-альбом [EP]
Дата выпуска: 1996
Лейбл: Edison Recordings
Формат: FLAC (tracks)
Битрейт: 775-912 kbps
Продолжительность: 00:19:17
Источник: Скачано с what.cd
Треклист:
01. For Indifference [00:05:33]
02. Fates Design [00:04:17]
03. Grifter [00:04:01]
04. Forecast [00:05:24]
Доп. информация:
Artwork By [Art And Design] - Darkicon
Bass - Mike D'Antonio
Drums - Jason Fitzgerald (2)
Engineer - Mike Westsound*Overcast expectational dilution method
Guitar - Pete Cortese , Scott McCooe
Photography [Live Photo] - Keebler
Photography [This Photo] - Mike D.
Producer - Us*

Overcast Expectational Dilution Equation

Vocals - Brian Fair
Recorded November 18th and 19th 1995 @ Westsound Studio Londonderry, NH.
Band credits are given as if this is the cd version, so it includes credits for the two extra tracks that appear on the cd vesion of this 7', when there are actually only two tracks, not four.
Extra notes:
'Shawn Rounds - Guitar on tracks 3 and 4 (recorded on November 6th 1993). Tracks 3 and 4 previously released on the 'Stirring The Killer' 7' (and no, the ending of Forecast is not supposed to fade out and cut us off, unlike prior release).'
Exact Audio Copy V0.99 prebeta 4 from 23. January 2008
EAC extraction logfile from 10. February 2009, 23:43
Overcast / Begging For Indifference
Used drive : MAD DOG MD-16XDVD9A4 Adapter: 4 ID: 0
Read mode : Secure
Utilize accurate stream : Yes
Defeat audio cache : Yes
Make use of C2 pointers : No
Read offset correction : 48
Overread into Lead-In and Lead-Out : No
Fill up missing offset samples with silence : Yes
Delete leading and trailing silent blocks : No
Null samples used in CRC calculations : Yes
Used interface : Native Win32 interface for Win NT & 2000
Gap handling : Appended to previous track
Used output format : User Defined Encoder
Selected bitrate : 320 kBit/s
Quality : High
Add ID3 tag : No
Command line compressor : C:Program FilesExact Audio CopyFlacflac.exe
Additional command line options : -V -8 -T 'artist=%a' -T 'title=%t' -T 'album=%g' -T 'date=%y' -T 'tracknumber=%n' -T 'genre=%m' %s
TOC of the extracted CD
Track Start Length Start sector End sector
---------------------------------------------------------
1 0:00.00 5:33.51 0 25025
2 5:33.51 4:17.41 25026 44341
3 9:51.17 4:01.03 44342 62419
4 13:52.20 5:24.70 62420 86789
Track 1
Filename 01 - For Indifference.wav
Pre-gap length 0:00:02.00
Peak level 98.7 %
Track quality 100.0 %
Test CRC 205C380B
Copy CRC 205C380B
Accurately ripped (confidence 1) [0CEB9951]
Copy OK
Track 2
Filename 02 - Fates Design.wav
Peak level 96.0 %
Track quality 100.0 %
Test CRC C2F98262
Copy CRC C2F98262
Accurately ripped (confidence 1) [309F6C65]
Copy OK
Track 3
Filename 03 - Grifter.wav
Peak level 88.5 %
Track quality 100.0 %
Test CRC 77FE7440
Copy CRC 77FE7440
Accurately ripped (confidence 1) [CD6A1CDA]
Copy OK
Track 4
Filename 04 - Forecast.wav
Peak level 75.0 %
Track quality 100.0 %
Test CRC 93B45E6A
Copy CRC 93B45E6A
Accurately ripped (confidence 1) [1776F74D]
Copy OK
All tracks accurately ripped
No errors occurred
End of status report
REM GENRE Metal
REM DATE 1996
REM DISCID 2D048504
REM COMMENT 'ExactAudioCopy v0.99pb4'
PERFORMER 'Overcast'
TITLE 'Begging For Indifference'
FILE '01 - For Indifference.wav' WAVE
TRACK 01 AUDIO
TITLE 'For Indifference'
PERFORMER 'Overcast'
INDEX 01 00:00:00
FILE '02 - Fates Design.wav' WAVE
TRACK 02 AUDIO
TITLE 'Fates Design'
PERFORMER 'Overcast'
INDEX 01 00:00:00
FILE '03 - Grifter.wav' WAVE
TRACK 03 AUDIO
TITLE 'Grifter'
PERFORMER 'Overcast'
INDEX 01 00:00:00
FILE '04 - Forecast.wav' WAVE
TRACK 04 AUDIO
TITLE 'Forecast'
PERFORMER 'Overcast'
INDEX 01 00:00:00
Исполнитель: Overcast
Альбом: Fight Ambition To Kill
Тип релиза: Студийная запись
Дата выпуска: 1997
Лейбл: Edison Recordings
Формат: FLAC (tracks)
Битрейт: 923-1035 kbps
Продолжительность: 00:36:14
Источник: Скачано с what.cd
Треклист:
01. Apocalypse Upon Us [00:04:21]
02. Spun [00:03:11]
03. Filter Of Syntax [00:02:54]
04. Styrofoam Death-Machine [00:03:57]
05. YOUR (destructive) SELF [00:03:56]
06. More Metal Than Your Ma's Kettle [00:02:59]
07. Seven ft. Grin [00:04:19]
08. Dosing This Flame [00:04:21]
09. Forecast [00:06:13]
Доп. информация:
Bass - Mike D'Antonio
Drums - Jay Fitzgerald
Engineer - Matt Ellard*
Guitar - Pete Cortese , Scott McCooe
Mastered By - Keith Chirgwin
Producer - Morgan Walker
Vocals - Brian Fair
Written-By - Overcast
Recorded at Fort Apache, Cambridge, MA. May 24-26, June 14-15, July 2.
Mixed at Carriage House Studios, Stamford, CT. July 28-31.
Mastered on August 6 1997 at Wave View Digital Editing.
Exact Audio Copy V0.99 prebeta 4 from 23. January 2008
EAC extraction logfile from 1. September 2008, 20:41
Overcast / Fight Ambition To Kill
Used drive : MAD DOG MD-16XDVD9A4 Adapter: 4 ID: 0
Read mode : Secure
Utilize accurate stream : Yes
Defeat audio cache : Yes
Make use of C2 pointers : No
Read offset correction : 48
Overread into Lead-In and Lead-Out : No
Fill up missing offset samples with silence : Yes
Delete leading and trailing silent blocks : No
Null samples used in CRC calculations : Yes
Used interface : Native Win32 interface for Win NT & 2000
Gap handling : Appended to previous track
Used output format : User Defined Encoder
Selected bitrate : 320 kBit/s
Quality : High
Add ID3 tag : No
Command line compressor : C:Program FilesExact Audio CopyFlacflac.exe
Additional command line options : -V -8 -T 'artist=%a' -T 'title=%t' -T 'album=%g' -T 'date=%y' -T 'tracknumber=%n' -T 'genre=%m' %s
TOC of the extracted CD
Track Start Length Start sector End sector
---------------------------------------------------------
1 0:00.00 4:21.16 0 19590
2 4:21.16 3:11.27 19591 33942
3 7:32.43 2:54.09 33943 47001
4 10:26.52 3:57.11 47002 64787
5 14:23.63 3:56.41 64788 82528
6 18:20.29 2:59.23 82529 95976
7 21:19.52 4:19.74 95977 115475
8 25:39.51 4:21.21 115476 135071
9 30:00.72 6:13.34 135072 163080
Track 1
Filename 01 - Apocalypse Upon Us.wav
Pre-gap length 0:00:02.00
Peak level 96.6 %
Track quality 99.9 %
Test CRC 937B008A
Copy CRC 937B008A
Accurately ripped (confidence 1) [C59A75D2]
Copy OK
Track 2
Filename 02 - Spun.wav
Peak level 96.7 %
Track quality 100.0 %
Test CRC F5FEF424
Copy CRC F5FEF424
Accurately ripped (confidence 1) [D1D69059]
Copy OK
Track 3
Filename 03 - Filter Of Syntax.wav
Peak level 96.6 %
Track quality 100.0 %
Test CRC FC20AB8C
Copy CRC FC20AB8C
Accurately ripped (confidence 1) [739AF6FC]
Copy OK
Track 4
Filename 04 - Styrofoam Death-Machine.wav
Peak level 96.6 %
Track quality 100.0 %
Test CRC 2280C1A1
Copy CRC 2280C1A1
Accurately ripped (confidence 1) [BEEE92C9]
Copy OK
Track 5
Filename 05 - YOUR (destructive) SELF.wav
Peak level 98.3 %
Track quality 100.0 %
Test CRC 34A67D96
Copy CRC 34A67D96
Accurately ripped (confidence 1) [9206687A]
Copy OK
Track 6
Filename 06 - More Metal Than Your Ma's Kettle.wav
Peak level 96.6 %
Track quality 99.9 %
Test CRC EABF093A
Copy CRC EABF093A
Accurately ripped (confidence 1) [F56ABA5D]
Copy OK
Track 7
Filename 07 - Seven ft. Grin.wav
Peak level 100.0 %
Track quality 99.9 %
Test CRC 53344FB4
Copy CRC 53344FB4
Accurately ripped (confidence 1) [CD991E63]
Copy OK
Track 8
Filename 08 - Dosing This Flame.wav
Peak level 96.6 %
Track quality 100.0 %
Test CRC 961E18DB
Copy CRC 961E18DB
Accurately ripped (confidence 1) [4D15A419]
Copy OK
Track 9
Filename 09 - Forecast.wav
Peak level 98.4 %
Track quality 100.0 %
Test CRC 382E8AB4
Copy CRC 382E8AB4
Accurately ripped (confidence 1) [B0641018]
Copy OK
All tracks accurately ripped
No errors occurred
End of status report
REM GENRE Metal
REM DATE 1997
REM DISCID 63087E09
REM COMMENT 'ExactAudioCopy v0.99pb4'
PERFORMER 'Overcast'
TITLE 'Fight Ambition To Kill'
FILE '01 - Apocalypse Upon Us.wav' WAVE
TRACK 01 AUDIO
TITLE 'Apocalypse Upon Us'
PERFORMER 'Overcast'
INDEX 01 00:00:00
FILE '02 - Spun.wav' WAVE
TRACK 02 AUDIO
TITLE 'Spun'
PERFORMER 'Overcast'
INDEX 01 00:00:00
FILE '03 - Filter Of Syntax.wav' WAVE
TRACK 03 AUDIO
TITLE 'Filter Of Syntax'
PERFORMER 'Overcast'
INDEX 01 00:00:00
FILE '04 - Styrofoam Death-Machine.wav' WAVE
TRACK 04 AUDIO
TITLE 'Styrofoam Death-Machine'
PERFORMER 'Overcast'
INDEX 01 00:00:00
FILE '05 - YOUR (destructive) SELF.wav' WAVE
TRACK 05 AUDIO
TITLE 'YOUR (destructive) SELF'
PERFORMER 'Overcast'
INDEX 01 00:00:00
FILE '06 - More Metal Than Your Ma's Kettle.wav' WAVE
TRACK 06 AUDIO
TITLE 'More Metal Than Your Ma's Kettle'
PERFORMER 'Overcast'
INDEX 01 00:00:00
FILE '07 - Seven ft. Grin.wav' WAVE
TRACK 07 AUDIO
TITLE 'Seven ft. Grin'
PERFORMER 'Overcast'
INDEX 01 00:00:00
FILE '08 - Dosing This Flame.wav' WAVE
TRACK 08 AUDIO
TITLE 'Dosing This Flame'
PERFORMER 'Overcast'
INDEX 01 00:00:00
FILE '09 - Forecast.wav' WAVE
TRACK 09 AUDIO
TITLE 'Forecast'
PERFORMER 'Overcast'
INDEX 01 00:00:00
Исполнитель: Overcast
Альбом: Reborn To Kill Again
Тип релиза: Официальный сборник [Compilation]
Дата выпуска: 2008
Лейбл: Metal Blade Records
Формат: FLAC (tracks)
Битрейт: 975-1062 kbps
Продолжительность: 00:57:20
Источник: Скачано с what.cd
Треклист:
01. Diluting Inertia/Grifter [00:04:23]
02. Root Bound Apollo [00:03:57]
03. Seven Ft. Grin [00:04:25]
04. Filter Of Syntax [00:02:57]
05. Reborn To Kill Again [00:02:34]
06. As A Whole/Two Degrees Below [00:07:41]
07. Spun [00:03:21]
08. Your (Destructive) Self [00:03:55]
09. For Indifference [00:05:35]
10. Styrofoam Death Machine [00:04:10]
11. Fates Design [00:04:25]
12. Apocalypse Upon Us [00:04:15]
13. Bleed Into One [00:05:37]
Доп. информация:
Brian Fair - Vocals
Mike D'Antonio - Bass
Pete Cortese - Guitar
Scott McCooe - Guitar
Jay Fitzgerald - Drums
Produced by Adam Dutkiewicz.Dilution
EAC extraction logfile from 20. August 2008, 7:42 for CD
Overcast / Reborn To Kill Again
Used drive : HP DVD Writer 740e Adapter: 2 ID: 0
Read mode : Secure with NO C2, accurate stream, disable cache
Read offset correction : 102
Overread into Lead-In and Lead-Out : No
Used output format : C:Program FilesFLACflac.exe (User Defined Encoder)
192 kBit/s
Additional command line options : -V -8 -T 'artist=%a' -T 'title=%t' -T 'album=%g' -T 'date=%y' -T 'tracknumber=%n' -T 'genre=%m' %s
Other options :
Fill up missing offset samples with silence : Yes
Delete leading and trailing silent blocks : No
Native Win32 interface for Win NT & 2000
Track 1
Filename D:FlacRipOvercast - Reborn To Kill Again01 - Diluting Inertia,Grifter.wav
Pre-gap length 0:00:02.00
Peak level 100.0 %
Track quality 100.0 %
Test CRC C5EE2A34
Copy CRC C5EE2A34
Copy OK
Track 2
Filename D:FlacRipOvercast - Reborn To Kill Again02 - Root Bound Apollo.wav
Peak level 100.0 %
Track quality 100.0 %
Test CRC E2DC3980
Copy CRC E2DC3980
Copy OK
Track 3
Filename D:FlacRipOvercast - Reborn To Kill Again03 - Seven Ft. Grin.wav
Peak level 100.0 %
Track quality 100.0 %
Test CRC 9F2517DA
Copy CRC 9F2517DA
Copy OK
Track 4
Filename D:FlacRipOvercast - Reborn To Kill Again04 - Filter Of Syntax.wav
Peak level 100.0 %
Track quality 100.0 %
Test CRC 357ABB8B
Copy CRC 357ABB8B
Copy OK
Track 5
Filename D:FlacRipOvercast - Reborn To Kill Again05 - Reborn To Kill Again.wav
Peak level 100.0 %
Track quality 100.0 %
Test CRC C32BA49C
Copy CRC C32BA49C
Copy OK
Track 6
Filename D:FlacRipOvercast - Reborn To Kill Again06 - As A Whole,Two Degrees Below.wav
Peak level 100.0 %
Track quality 99.9 %
Test CRC F36973BA
Copy CRC F36973BA
Copy OK
Track 7
Filename D:FlacRipOvercast - Reborn To Kill Again07 - Spun.wav
Peak level 100.0 %
Track quality 100.0 %
Test CRC 2B4C0179
Copy CRC 2B4C0179
Copy OK
Track 8
Filename D:FlacRipOvercast - Reborn To Kill Again08 - Your (Destructive) Self.wav
Peak level 100.0 %
Track quality 100.0 %
Test CRC 34DC6D5D
Copy CRC 34DC6D5D
Copy OK
Track 9
Filename D:FlacRipOvercast - Reborn To Kill Again09 - For Indifference.wav
Peak level 100.0 %
Track quality 100.0 %
Test CRC 495CDC7A
Copy CRC 495CDC7A
Copy OK
Track 10
Filename D:FlacRipOvercast - Reborn To Kill Again10 - Styrofoam Death Machine.wav
Peak level 100.0 %
Track quality 100.0 %
Test CRC 96A076B4
Copy CRC 96A076B4
Copy OK
Track 11
Filename D:FlacRipOvercast - Reborn To Kill Again11 - Fates Design.wav
Peak level 100.0 %
Track quality 99.9 %
Test CRC 44C42962
Copy CRC 44C42962
Copy OK
Track 12
Filename D:FlacRipOvercast - Reborn To Kill Again12 - Apocalypse Upon Us.wav
Peak level 100.0 %
Track quality 100.0 %
Test CRC B385336D
Copy CRC B385336D
Copy OK
Track 13
Filename D:FlacRipOvercast - Reborn To Kill Again13 - Bleed Into One.wav
Peak level 100.0 %
Track quality 100.0 %
Test CRC FD172865
Copy CRC FD172865
Copy OK
No errors occured
End of status report
REM GENRE Metal
REM DATE 2008
REM DISCID AF0D700D
REM COMMENT 'ExactAudioCopy v0.95b4'
PERFORMER 'Overcast'
TITLE 'Reborn To Kill Again'
FILE '01 - Diluting Inertia,Grifter.wav' WAVE
TRACK 01 AUDIO
TITLE 'Diluting Inertia/Grifter'
PERFORMER 'Overcast'
INDEX 01 00:00:00
FILE '02 - Root Bound Apollo.wav' WAVE
TRACK 02 AUDIO
TITLE 'Root Bound Apollo'
PERFORMER 'Overcast'
INDEX 01 00:00:00
FILE '03 - Seven Ft. Grin.wav' WAVE
TRACK 03 AUDIO
TITLE 'Seven Ft. Grin'
PERFORMER 'Overcast'
INDEX 01 00:00:00
FILE '04 - Filter Of Syntax.wav' WAVE
TRACK 04 AUDIO
TITLE 'Filter Of Syntax'
PERFORMER 'Overcast'
INDEX 01 00:00:00
FILE '05 - Reborn To Kill Again.wav' WAVE
TRACK 05 AUDIO
TITLE 'Reborn To Kill Again'
PERFORMER 'Overcast'
INDEX 01 00:00:00
FILE '06 - As A Whole,Two Degrees Below.wav' WAVE
TRACK 06 AUDIO
TITLE 'As A Whole/Two Degrees Below'
PERFORMER 'Overcast'
INDEX 01 00:00:00
FILE '07 - Spun.wav' WAVE
TRACK 07 AUDIO
TITLE 'Spun'
PERFORMER 'Overcast'
INDEX 01 00:00:00
FILE '08 - Your (Destructive) Self.wav' WAVE
TRACK 08 AUDIO
TITLE 'Your (Destructive) Self'
PERFORMER 'Overcast'
INDEX 01 00:00:00
FILE '09 - For Indifference.wav' WAVE
TRACK 09 AUDIO
TITLE 'For Indifference'
PERFORMER 'Overcast'
INDEX 01 00:00:00
FILE '10 - Styrofoam Death Machine.wav' WAVE
TRACK 10 AUDIO
TITLE 'Styrofoam Death Machine'
PERFORMER 'Overcast'
INDEX 01 00:00:00
FILE '11 - Fates Design.wav' WAVE
TRACK 11 AUDIO
TITLE 'Fates Design'
PERFORMER 'Overcast'
INDEX 01 00:00:00
FILE '12 - Apocalypse Upon Us.wav' WAVE
TRACK 12 AUDIO
TITLE 'Apocalypse Upon Us'
PERFORMER 'Overcast'
INDEX 01 00:00:00
FILE '13 - Bleed Into One.wav' WAVE
TRACK 13 AUDIO
TITLE 'Bleed Into One'
PERFORMER 'Overcast'
INDEX 01 00:00:00
Доп. информация:
Overcast - melodic metalcore группа из Бостона, Массачусетс. Они так сказать, являются одними из пионеров в metalcore сцене. Они были вместе с августа 1991 до ноября 1998, когда они расформировались после успешного тура по Aмерике. Среди участников Brian Fair, теперь ведущий вокалист в группе Shadows Fall; Mike D’Antonio, басист Killswitch Engage; а также Pete Cortese, Seemless; Scott McCooe и Jay Fitzgerald.
Brian Fair - Vocals (1991-Present)
Mike D'Antonio - Bass (1991-Present)
Pete Cortese - Guitar (1991-Present)
Scott McCooe - Guitar (1994-Present)
Jay Fitzgerald - Drums (1991-Present)
Shawn Rounds - Guitar (1991-1994)